Need help with Dxtory Video Stutter and Hard drive Write Speed

Bryce Demar

Honorable
Aug 28, 2013
36
0
10,580
0
Hello every one I recently purchased a 250gb ssd and cloned about 70gb of important documents from my 1tb hard drive and I am now using my hardrive for storage purposes but then the issue with dxtory presented itself with when I try to record a video being 1080p 30fps, I get massive video stutter on videos recorded to my hardrive lacking write speed but not on my ssd due to its far better write speed. Now to solve this issue I don't really want to start saving up for a 1tb ssd for that would be stupid in my mind. I would like to know if there is any way of fixing this stutter issue with out spending any more money then I have without being forced to lower my video quality.

Excess info
Hardrive's write speed 60 - 72mb/s
SSD write speed 450 - 550mbs/s
From mental math - my videos supposed file size per second is 35mbs/s so why do i get video stutter???

cpu i7 2600k
gpu gtx 760
ram 8gb corsair vengence
samsung evo 840 250gb ssd
Seagate Barracuda 1 TB HDD
 

Bryce Demar

Honorable
Aug 28, 2013
36
0
10,580
0


General
Complete name : G:\Videos\Gaming\Recorded\Pre-Edited\Test video.avi
Format : AVI
Format/Info : Audio Video Interleave
Format profile : OpenDML
File size : 35.3 GiB
Duration : 17mn 16s
Overall bit rate : 293 Mbps
Original source form/Distributed by : Video:Lagarith Lossless Codec Audio0:Speakers (2- Corsair Vengeance 2100 Headset) Audio1:Microphone (Blue Snowball)
Writing application : DxtoryCore ver2.0.0.125

Video
ID : 0
Format : Lagarith
Codec ID : LAGS
Duration : 17mn 16s
Bit rate : 287 Mbps
Width : 1 920 pixels
Height : 1 080 pixels
Display aspect ratio : 16:9
Frame rate : 30.000 fps
Color space : RGB
Bit depth : 8 bits
Bits/(Pixel*Frame) : 4.612
Stream size : 34.6 GiB (98%)

Audio #1
ID : 1
Format : ADPCM
Codec ID : 2
Duration : 17mn 16s
Bit rate mode : Constant
Bit rate : 1 538 Kbps
Channel(s) : 2 channels
Sampling rate : 192 KHz
Bit depth : 4 bits
Stream size : 190 MiB (1%)
Interleave, duration : 1041 ms (31.24 video frames)

Audio #2
ID : 2
Format : PCM
Format settings, Endianness : Little
Format settings, Sign : Signed
Codec ID : 1
Duration : 17mn 16s
Bit rate mode : Constant
Bit rate : 4 608 Kbps
Channel(s) : 2 channels
Sampling rate : 96.0 KHz
Bit depth : 24 bits
Stream size : 569 MiB (2%)
Alignment : Aligned on interleaves
Interleave, duration : 100 ms (3.00 video frames)


 

Bryce Demar

Honorable
Aug 28, 2013
36
0
10,580
0


Well i tried the codec and actually got more stutter on my videos and I am unable to adjust the quality settings for either fmvc or lagarith
 
Thread starter Similar threads Forum Replies Date
I Apps General Discussion 1
S Apps General Discussion 3
W Apps General Discussion 1
M Apps General Discussion 6
D Apps General Discussion 2
R Apps General Discussion 3
U Apps General Discussion 1
T Apps General Discussion 1
B Apps General Discussion 4
S Apps General Discussion 4
E Apps General Discussion 2
C Apps General Discussion 1
B Apps General Discussion 2
B Apps General Discussion 4
A Apps General Discussion 1
X Apps General Discussion 7
vFMXv Apps General Discussion 1
ECaarnage Apps General Discussion 1
bluhefner Apps General Discussion 2
R Apps General Discussion 1

ASK THE COMMUNITY