Videos super slow when put into editing software

HeroicGypsy

Estimable
Jun 14, 2014
16
0
4,560
0
When I put my video into any editing software (Virtualdub, movavi, Windows movie maker) It is slowed down to and extreme amount maybe not even a frame per second. The audio is okay in Movavi it plays along all fine but it is very choppy just like the video in virtualdub. The videos are compressed that I am putting into the editing software

Any help would be greatly appreciated
Thanks!
 

HeroicGypsy

Estimable
Jun 14, 2014
16
0
4,560
0


8 GB viper 3 blackmamba

 

Diganta Das

Honorable
Jul 22, 2013
30
0
10,610
5


They seems all fine... Have u updated the graphics driver? What is the video compression?
 

HeroicGypsy

Estimable
Jun 14, 2014
16
0
4,560
0


I have I think you are looking for Mp4?

 

iceblitzed

Estimable
May 12, 2014
694
0
5,960
138
General
Complete name : C:\Users\WAHEED\Desktop\VideoInEditingSoftware.mp4
Format : MPEG-4
Format profile : Base Media / Version 2
Codec ID : mp42
File size : 797 KiB
Duration : 22s 187ms
Overall bit rate mode : Variable
Overall bit rate : 294 Kbps
Encoded date : UTC 2014-06-16 21:00:40
Tagged date : UTC 2014-06-16 21:00:46
Writing application : HandBrake 0.9.9 2013052900

Video
ID : 1
Format : AVC
Format/Info : Advanced Video Codec
Format profile : High@L3.2
Format settings, CABAC : Yes
Format settings, ReFrames : 4 frames
Codec ID : avc1
Codec ID/Info : Advanced Video Coding
Duration : 22s 175ms
Bit rate : 122 Kbps
Width : 712 pixels
Height : 378 pixels
Display aspect ratio : 1.884
Frame rate mode : Constant
Frame rate : 120.000 fps
Color space : YUV
Chroma subsampling : 4:2:0
Bit depth : 8 bits
Scan type : Progressive
Bits/(Pixel*Frame) : 0.004
Stream size : 332 KiB (42%)
Writing library : x264 core 130 r2273 b3065e6
Encoding settings : cabac=1 / ref=4 / deblock=1:0:0 / analyse=0x3:0x113 / me=hex / subme=7 / psy=1 / psy_rd=1.00:0.00 / mixed_ref=1 / me_range=16 / chroma_me=1 / trellis=1 / 8x8dct=1 / cqm=0 / deadzone=21,11 / fast_pskip=1 / chroma_qp_offset=-2 / threads=12 / lookahead_threads=2 / sliced_threads=0 / nr=0 / decimate=1 / interlaced=0 / bluray_compat=0 / constrained_intra=0 / bframes=3 / b_pyramid=2 / b_adapt=1 / b_bias=0 / direct=1 / weightb=1 / open_gop=0 / weightp=2 / keyint=1200 / keyint_min=120 / scenecut=40 / intra_refresh=0 / rc_lookahead=40 / rc=crf / mbtree=1 / crf=22.0 / qcomp=0.60 / qpmin=0 / qpmax=69 / qpstep=4 / ip_ratio=1.40 / aq=1:1.00
Encoded date : UTC 2014-06-16 21:00:40
Tagged date : UTC 2014-06-16 21:00:46
Color primaries : BT.601 NTSC
Transfer characteristics : BT.709
Matrix coefficients : BT.601

Audio
ID : 2
Format : AAC
Format/Info : Advanced Audio Codec
Format profile : LC
Codec ID : 40
Duration : 22s 187ms
Bit rate mode : Variable
Bit rate : 156 Kbps
Maximum bit rate : 182 Kbps
Channel(s) : 2 channels
Channel positions : Front: L R
Sampling rate : 48.0 KHz
Compression mode : Lossy
Stream size : 421 KiB (53%)
Encoded date : UTC 2014-06-16 21:00:40
Tagged date : UTC 2014-06-16 21:00:46

FPS of 120 is a lot. Try converting the video using 60 or 30 instead. Tell us if you have any problems
 

HeroicGypsy

Estimable
Jun 14, 2014
16
0
4,560
0


Are you saying I should convert it with handbrake into 60 or 30 fps? Will that lower the quality?
 

iceblitzed

Estimable
May 12, 2014
694
0
5,960
138


It depends on the game but theres a good chance it could. probably for your video there might be a slight decrease but not anything too noticeable.

UPDATE: actually i converted the video to 30 fps just to test things and it still is choppy. most likely what you will have to do is do the recording @ 60 fps. if thats laggy try 30fps. What video recording program do you use>. try changing the recording settings if u do record at 120fps
 

HeroicGypsy

Estimable
Jun 14, 2014
16
0
4,560
0


Woups didn't mean to choose it yet. Anyway I don't really know a good program so I'm trying movavi. I record with fraps at 120 because if I go any lower it drops my frames to that level. Any suggestions?
 

HeroicGypsy

Estimable
Jun 14, 2014
16
0
4,560
0


Okay I tried setting the fps lower, It helped but it is still pretty choppy even at 30 fps that might be because my computer slowed down to 30 fps. Any more ideas to prevent my FRAPS from slowing down BF4 just to record at 30fps?
 

HeroicGypsy

Estimable
Jun 14, 2014
16
0
4,560
0


The site doesn't seem to be working it keeps saying "Timed out while waiting for applet to load." Im pretty sure my monitor refresh rate is not the problem.
 

HeroicGypsy

Estimable
Jun 14, 2014
16
0
4,560
0


Got it! 59hz

 

HeroicGypsy

Estimable
Jun 14, 2014
16
0
4,560
0
Still doesn't work guys, I tried the sony vegas 13 trial and the video was NOT slowed down but I tried some more free programs such as blender and the video is slowed.
 
Thread starter Similar threads Forum Replies Date
I Apps General Discussion 0
D Apps General Discussion 1
K Apps General Discussion 2
D Apps General Discussion 2
I Apps General Discussion 0
G Apps General Discussion 7
PepeTheDog Apps General Discussion 3
F Apps General Discussion 0
sevstrider Apps General Discussion 6
L Apps General Discussion 2
H Apps General Discussion 1
G Apps General Discussion 1
P Apps General Discussion 4
camarillodelrio Apps General Discussion 1
T Apps General Discussion 10
L Apps General Discussion 2
U Apps General Discussion 7
EliteSmore Apps General Discussion 2
S Apps General Discussion 5
G Apps General Discussion 3

ASK THE COMMUNITY